osu file format v14

[General]
AudioFilename: frostbite.mp3
AudioLeadIn: 1500
PreviewTime: 83345
Countdown: 0
SampleSet: Normal
StackLeniency: 0.7
Mode: 0
LetterboxInBreaks: 0
WidescreenStoryboard: 0

[Editor]
Bookmarks: 55907,143657,165621
DistanceSpacing: 1.5
BeatDivisor: 4
GridSize: 4
TimelineZoom: 1

[Metadata]
Title:Arctic Justice (Frostbite Island)
TitleUnicode:Arctic Justice (Frostbite Island)
Artist:Jake Kaufman
ArtistUnicode:Jake Kaufman
Creator:Pereira006
Version:Insane
Source:Shantae and the Pirate's Curse
Tags:WayForward Nintendo 3DS Wii U PC yuii-
BeatmapID:817923
BeatmapSetID:373347

[Difficulty]
HPDrainRate:7
CircleSize:4
OverallDifficulty:7
ApproachRate:8
SliderMultiplier:1.6
SliderTickRate:1

[Events]
//Background and Video events
0,0,"bg.jpg",0,0
//Break Periods
//Storyboard Layer 0 (Background)
//Storyboard Layer 1 (Fail)
//Storyboard Layer 2 (Pass)
//Storyboard Layer 3 (Foreground)
//Storyboard Sound Samples

[TimingPoints]
1060,428.571428571429,4,1,0,40,1,0
14774,-100,4,2,0,50,0,0
42202,-100,4,1,0,50,0,0
83345,-100,4,1,0,50,0,1
96952,-100,4,1,0,50,0,0
97060,-100,4,1,0,50,0,1
110774,-100,4,1,0,50,0,0
124488,-100,4,2,0,50,0,0
151917,-100,4,1,0,50,0,0
193060,-100,4,1,0,50,0,1
206667,-100,4,1,0,50,0,0
206774,-100,4,1,0,50,0,1
220488,-100,4,1,0,50,0,0

[Colours]
Combo1 : 0,0,230
Combo2 : 0,213,0
Combo3 : 176,88,0

[HitObjects]
48,72,1060,6,0,B|98:39|161:41|207:71,1,160,4|8,2:0|1:0,0:0:0:0:
220,192,1702,1,0,0:0:0:0:
108,224,1917,2,0,B|95:268|115:314|155:338|195:336,1,160,2|8,2:0|0:0,0:0:0:0:
276,296,2560,1,0,0:0:0:0:
448,324,2774,6,0,B|473:273|474:217|456:168,1,160,2|8,2:0|0:0,0:0:0:0:
392,68,3417,1,0,0:0:0:0:
280,28,3631,2,0,B|228:2|165:27|144:79,1,160,2|8,2:0|0:0,0:0:0:0:
136,172,4274,1,0,0:0:0:0:
20,156,4488,6,0,B|-1:209|-1:264|16:313,1,160,2|8,2:0|0:0,0:0:0:0:
124,368,5131,1,0,0:0:0:0:
240,336,5345,2,0,B|258:282|255:226|236:178,1,160,2|8,2:0|0:0,0:0:0:0:
180,100,5988,1,0,0:0:0:0:
356,44,6202,6,0,B|384:52|405:72|416:96,1,80,2|0,2:0|0:0,0:0:0:0:
308,232,6631,1,8,0:0:0:0:
260,48,6845,1,0,0:0:0:0:
212,196,7060,1,2,2:0:0:0:
392,188,7274,1,0,0:0:0:0:
180,100,7488,1,8,0:0:0:0:
296,132,7702,1,0,0:0:0:0:
96,56,7917,6,0,B|52:47|9:71|-8:113|0:151,1,160,4|8,2:0|0:0,0:0:0:0:
12,272,8560,1,0,0:0:0:0:
84,368,8774,2,0,B|136:391|195:371|223:325,1,160,2|8,2:0|0:0,0:0:0:0:
248,232,9417,1,0,0:0:0:0:
412,360,9631,6,0,B|459:328|478:272|464:221,1,160,2|8,2:0|0:0,0:0:0:0:
436,104,10274,1,0,0:0:0:0:
336,36,10488,2,0,B|292:-1|228:6|193:47,1,160,2|8,2:0|0:0,0:0:0:0:
180,144,11131,1,0,0:0:0:0:
20,120,11345,6,0,B|-15:170|-1:238|47:271,1,160,2|8,2:0|0:0,0:0:0:0:
144,324,11988,1,0,0:0:0:0:
256,364,12202,2,0,B|309:344|338:289|328:237,1,160,2|8,2:0|0:0,0:0:0:0:
344,140,12845,1,0,0:0:0:0:
196,48,13060,6,0,B|152:40|109:46|70:61,1,120,2|0,2:0|0:0,0:0:0:0:
52,100,13488,2,0,B|34:140|35:184|52:220,1,120,2|0,2:0|0:0,0:0:0:0:
80,268,13917,1,8,0:0:0:0:
168,304,14345,1,0,0:0:0:0:
168,304,14560,1,0,0:0:0:0:
168,304,14667,1,0,0:0:0:0:
168,304,14774,6,0,B|221:330|280:320|322:287,1,160,4|2,2:0|0:0,0:0:0:0:
396,232,15417,1,0,0:0:0:0:
392,136,15631,2,0,B|389:106|370:83|344:72,1,80,8|0,1:0|0:0,0:0:0:0:
300,68,15952,2,0,L|220:68,1,80,,,0:0:0:0:
172,68,16274,1,0,0:0:0:0:
44,184,16488,6,0,B|35:241|60:294|103:323,1,160,2|2,0:0|0:0,0:0:0:0:
200,312,17131,1,0,0:0:0:0:
252,232,17345,2,0,B|253:202|234:177|209:168,1,80,8|0,1:0|0:0,0:0:0:0:
124,124,17774,1,2,0:0:0:0:
192,60,17988,1,0,0:0:0:0:
213,50,18095,1,0,0:0:0:0:
236,43,18202,6,0,B|291:29|346:36|393:59,1,160,2|2,0:0|0:0,0:0:0:0:
448,136,18845,1,0,0:0:0:0:
480,228,19060,2,0,B|487:257|480:286|464:308,1,80,8|0,1:0|0:0,0:0:0:0:
424,328,19381,2,0,L|344:328,1,80,,,0:0:0:0:
296,328,19702,1,0,0:0:0:0:
276,160,19917,6,0,B|247:111|187:92|137:112,1,160,2|2,0:0|0:0,0:0:0:0:
44,132,20560,1,0,0:0:0:0:
8,220,20774,2,0,B|6:263|31:300|66:318,1,120,8|8,1:0|1:0,0:0:0:0:
112,332,21202,1,2,0:0:0:0:
204,304,21417,1,0,0:0:0:0:
215,283,21524,1,0,0:0:0:0:
215,259,21631,6,0,B|192:205|196:147|220:99,1,160,2|2,0:0|0:0,0:0:0:0:
300,52,22274,1,0,0:0:0:0:
396,40,22488,2,0,B|423:50|443:71|452:96,1,80,8|0,1:0|0:0,0:0:0:0:
428,136,22810,2,0,B|401:146|381:167|372:192,1,80,,,0:0:0:0:
380,236,23131,1,0,0:0:0:0:
260,368,23345,6,0,B|233:379|204:378|180:368,1,80,2|0,0:0|0:0,0:0:0:0:
28,260,23774,1,2,0:0:0:0:
96,324,23988,1,0,0:0:0:0:
8,164,24202,2,0,B|13:135|30:111|52:96,1,80,8|0,1:0|1:0,1:0:0:0:
128,48,24631,1,2,0:0:0:0:
149,38,24738,1,0,0:0:0:0:
172,31,24845,1,0,0:0:0:0:
195,27,24952,1,0,0:0:0:0:
218,23,25060,6,0,L|298:23,1,80,2|0,0:0|0:0,0:0:0:0:
344,24,25381,2,0,B|373:21|400:31|420:48,1,80,,,0:0:0:0:
452,80,25702,1,0,0:0:0:0:
484,172,25917,2,0,B|467:195|441:207|415:208,1,80,8|0,1:0|0:0,0:0:0:0:
320,200,26345,1,2,0:0:0:0:
296,198,26452,1,0,0:0:0:0:
271,198,26560,1,0,0:0:0:0:
247,201,26667,1,0,0:0:0:0:
223,205,26774,6,0,B|182:210|148:233,1,80,2|0,0:0|0:0,0:0:0:0:
128,276,27095,2,0,B|106:295|81:307|55:312,1,80,,,0:0:0:0:
12,300,27417,1,0,0:0:0:0:
8,204,27631,1,8,1:0:0:0:
108,80,27845,2,0,B|136:67|165:64|193:68,1,80,,,0:0:0:0:
280,88,28274,1,0,0:0:0:0:
293,107,28381,1,0,0:0:0:0:
303,128,28488,6,0,B|341:170|345:231|318:276,1,160,4|2,2:0|0:0,0:0:0:0:
244,340,29131,1,0,0:0:0:0:
148,356,29345,2,0,B|122:345|104:322|100:296,1,80,8|0,1:0|0:0,0:0:0:0:
128,256,29667,2,0,B|154:245|172:222|176:196,1,80,,,0:0:0:0:
156,152,29988,1,0,0:0:0:0:
264,32,30202,6,0,B|322:24|375:57|396:107,1,160,2|2,0:0|0:0,0:0:0:0:
404,200,30845,1,0,0:0:0:0:
384,292,31060,2,0,B|372:319|352:340|327:352,1,80,8|0,1:0|0:0,0:0:0:0:
236,356,31488,1,2,0:0:0:0:
140,344,31702,1,0,0:0:0:0:
116,336,31810,1,0,0:0:0:0:
96,324,31917,6,0,B|49:291|37:228|63:181,1,160,2|2,0:0|0:0,0:0:0:0:
124,104,32560,1,0,0:0:0:0:
148,104,32667,1,0,0:0:0:0:
172,108,32774,2,0,B|225:133|255:185|256:239,1,160,8|2,1:0|0:0,0:0:0:0:
264,332,33417,1,0,0:0:0:0:
444,352,33631,6,0,B|462:328|466:298|456:272,1,80,2|0,0:0|0:0,0:0:0:0:
424,244,33952,2,0,B|399:229|385:203|384:176,1,80,,,0:0:0:0:
372,132,34274,1,0,0:0:0:0:
352,40,34488,2,0,B|302:11|245:9|196:28,1,160,8|2,1:0|0:0,0:0:0:0:
108,64,35131,1,0,0:0:0:0:
84,72,35238,1,0,0:0:0:0:
60,76,35345,6,0,B|37:130|46:188|76:232,1,160,2|2,0:0|0:0,0:0:0:0:
144,296,35988,1,0,0:0:0:0:
240,296,36202,2,0,B|268:287|296:298|312:320,1,80,8|0,1:0|0:0,0:0:0:0:
356,336,36524,2,0,B|372:359|402:367|426:358,1,80,,,0:0:0:0:
456,320,36845,1,0,0:0:0:0:
468,136,37060,6,0,B|461:107|436:87|409:84,1,80,2|0,0:0|0:0,0:0:0:0:
268,172,37488,1,2,0:0:0:0:
316,92,37702,1,0,0:0:0:0:
180,212,37917,2,0,B|150:221|121:217|96:204,1,80,8|0,1:0|0:0,0:0:0:0:
136,72,38345,1,2,0:0:0:0:
56,124,38560,1,0,0:0:0:0:
208,136,38774,6,0,B|216:78|267:37|323:40,1,160,2|2,0:0|0:0,0:0:0:0:
416,36,39417,1,0,0:0:0:0:
436,44,39524,1,0,0:0:0:0:
452,60,39631,2,0,B|474:79|485:106|484:132,1,80,8|0,1:0|0:0,0:0:0:0:
387,270,40060,2,0,B|386:241|399:216|419:199,1,80,2|0,0:0|0:0,0:0:0:0:
484,272,40488,5,2,0:0:0:0:
476,296,40595,1,0,0:0:0:0:
464,316,40702,2,0,B|428:361|361:364|320:324,1,160,,,0:0:0:0:
260,252,41345,1,8,1:0:0:0:
256,156,41560,1,0,0:0:0:0:
245,134,41667,1,8,1:0:0:0:
228,116,41774,1,0,0:0:0:0:
207,103,41881,1,0,0:0:0:0:
184,93,41988,1,8,1:0:0:0:
8,140,42202,6,0,B|-6:196|4:252|32:296,1,160,4|8,2:0|0:0,0:0:0:0:
144,332,42845,1,0,0:0:0:0:
252,284,43060,2,0,B|266:228|256:173|229:129,1,160,2|8,2:0|0:0,0:0:0:0:
140,92,43702,1,0,0:0:0:0:
312,16,43917,6,0,B|369:4|423:43|432:99,1,160,2|8,2:0|0:0,0:0:0:0:
332,168,44560,1,0,0:0:0:0:
444,200,44774,2,0,B|470:251|448:311|400:336,1,160,2|8,2:0|0:0,0:0:0:0:
304,336,45417,1,0,0:0:0:0:
128,336,45631,6,0,B|84:298|70:239|88:189,1,160,2|8,2:0|0:0,0:0:0:0:
164,100,46274,1,0,0:0:0:0:
280,76,46488,2,0,B|324:114|338:173|320:223,1,160,2|8,2:0|0:0,0:0:0:0:
256,280,47131,1,0,0:0:0:0:
164,100,47345,6,0,B|136:97|109:105|88:120,1,80,2|0,2:0|0:0,0:0:0:0:
88,344,47774,1,8,0:0:0:0:
244,184,47988,1,0,0:0:0:0:
28,184,48202,1,2,2:0:0:0:
184,344,48417,1,0,0:0:0:0:
28,280,48631,1,8,1:0:0:0:
244,280,48845,1,0,0:0:0:0:
208,100,49060,6,0,B|264:85|320:96|364:124,1,160,4|8,2:0|0:0,0:0:0:0:
420,228,49702,1,0,0:0:0:0:
352,324,49917,2,0,B|300:348|245:350|195:336,1,160,2|8,2:0|0:0,0:0:0:0:
116,280,50560,1,0,0:0:0:0:
52,108,50774,6,0,B|109:94|165:115|199:155,1,160,2|8,2:0|0:0,0:0:0:0:
224,272,51417,1,0,0:0:0:0:
324,336,51631,2,0,B|380:341|428:296|428:241,1,160,2|8,2:0|0:0,0:0:0:0:
408,144,52274,1,0,0:0:0:0:
248,48,52488,6,0,B|196:24|137:34|97:67,1,160,0|8,2:0|0:0,0:0:0:0:
32,168,53131,1,0,0:0:0:0:
20,288,53345,2,0,B|31:343|89:375|142:357,1,160,2|8,2:0|0:0,0:0:0:0:
228,316,53988,1,0,0:0:0:0:
408,360,54202,6,0,B|456:327|473:268|456:217,1,160,2|8,2:0|0:0,0:0:0:0:
408,108,54845,1,0,0:0:0:0:
304,48,55060,1,8,0:0:0:0:
184,56,55274,1,8,0:0:0:0:
80,116,55488,1,8,0:0:0:0:
65,134,55595,1,0,0:0:0:0:
55,155,55702,1,8,0:0:0:0:
47,178,55810,1,0,0:0:0:0:
42,201,55917,6,0,B|29:257|60:312|111:332,1,160,4|8,2:0|0:0,0:0:0:0:
208,340,56560,1,0,0:0:0:0:
304,332,56774,2,0,B|332:324|353:304|364:280,1,80,2|0,2:0|0:0,0:0:0:0:
364,232,57095,2,0,L|364:152,1,80,,,0:0:0:0:
364,104,57417,1,0,0:0:0:0:
188,32,57631,6,0,B|139:62|123:123|148:171,1,160,2|8,2:0|0:0,0:0:0:0:
204,248,58274,1,0,0:0:0:0:
176,340,58488,2,0,B|153:357|125:361|100:356,1,80,2|0,2:0|0:0,0:0:0:0:
20,300,58917,1,8,0:0:0:0:
8,204,59131,1,0,0:0:0:0:
10,180,59238,1,0,0:0:0:0:
16,157,59345,6,0,B|52:113|108:96|159:108,1,160,2|8,2:0|0:0,0:0:0:0:
256,116,59988,1,0,0:0:0:0:
348,136,60202,2,0,B|375:145|391:170|392:195,1,80,2|0,2:0|0:0,0:0:0:0:
392,244,60524,2,0,L|392:324,1,80,,,0:0:0:0:
356,356,60845,1,0,0:0:0:0:
168,340,61060,6,0,B|115:319|86:266|92:213,1,160,2|8,2:0|0:0,0:0:0:0:
112,120,61702,1,0,0:0:0:0:
176,48,61917,2,0,B|220:52|254:83|264:123,1,120,2|0,2:0|0:0,0:0:0:0:
268,168,62345,1,8,0:0:0:0:
300,260,62560,1,0,0:0:0:0:
314,279,62667,1,0,0:0:0:0:
329,297,62774,6,0,B|372:336|428:351|481:344,1,160,2|8,2:0|0:0,0:0:0:0:
496,252,63417,1,0,0:0:0:0:
504,156,63631,2,0,B|486:118|460:88,1,80,2|0,2:0|0:0,0:0:0:0:
420,64,63952,2,0,L|336:64,1,80,,,0:0:0:0:
292,64,64274,1,0,0:0:0:0:
104,88,64488,6,0,B|77:98|60:121|56:148,1,80,2|0,2:0|0:0,0:0:0:0:
124,316,64917,1,8,0:0:0:0:
60,244,65131,1,0,0:0:0:0:
212,280,65345,2,0,B|232:257|233:224|216:200,1,80,2|0,2:0|0:0,0:0:0:0:
176,120,65774,1,8,0:0:0:0:
176,96,65881,1,0,0:0:0:0:
180,72,65988,1,0,0:0:0:0:
190,50,66095,1,0,0:0:0:0:
204,32,66202,6,0,L|284:32,1,80,2|0,2:0|0:0,0:0:0:0:
332,36,66524,2,0,B|361:37|388:48|409:65,1,80,,,0:0:0:0:
436,100,66845,1,0,0:0:0:0:
464,192,67060,2,0,B|471:220|469:248|460:273,1,80,2|0,2:0|0:0,0:0:0:0:
392,336,67488,1,8,0:0:0:0:
370,346,67595,1,0,0:0:0:0:
346,351,67702,1,0,0:0:0:0:
321,353,67810,1,0,0:0:0:0:
296,352,67917,6,0,B|267:356|239:351|215:340,1,80,2|0,2:0|0:0,0:0:0:0:
192,300,68238,2,0,B|170:281|142:275|116:280,1,80,,,0:0:0:0:
68,284,68560,1,0,0:0:0:0:
32,168,68774,1,2,2:0:0:0:
60,76,68988,2,0,B|85:92|113:98|141:96,1,80,0|8,0:0|0:0,0:0:0:0:
224,56,69417,1,0,0:0:0:0:
244,44,69524,1,0,0:0:0:0:
268,40,69631,6,0,B|324:24|380:43|415:83,1,160,4|8,2:0|0:0,0:0:0:0:
420,176,70274,1,0,0:0:0:0:
372,256,70488,2,0,B|350:290|320:316,1,80,2|0,2:0|0:0,0:0:0:0:
276,332,70810,2,0,B|236:344|196:340,1,80,,,0:0:0:0:
148,340,71131,1,0,0:0:0:0:
28,208,71345,6,0,B|35:151|84:111|139:112,1,160,2|8,2:0|0:0,0:0:0:0:
216,172,71988,1,0,0:0:0:0:
312,188,72202,2,0,B|342:186|370:175|393:159,1,80,2|0,2:0|0:0,0:0:0:0:
456,96,72631,1,8,0:0:0:0:
384,36,72845,1,0,0:0:0:0:
360,28,72952,1,0,0:0:0:0:
336,24,73060,6,0,B|280:10|224:14|174:33,1,160,2|8,2:0|0:0,0:0:0:0:
116,104,73702,1,0,0:0:0:0:
108,128,73810,1,0,0:0:0:0:
104,152,73917,2,0,B|99:183|113:211|136:228,1,80,2|0,2:0|0:0,0:0:0:0:
316,212,74345,1,8,0:0:0:0:
224,236,74560,1,0,0:0:0:0:
320,116,74774,6,0,B|365:113|405:140|422:181|416:219,1,160,2|8,2:0|0:0,0:0:0:0:
428,312,75417,1,0,0:0:0:0:
408,324,75524,1,0,0:0:0:0:
384,332,75631,2,0,B|330:352|274:341|233:308,1,160,2|8,2:0|0:0,0:0:0:0:
276,224,76274,1,0,0:0:0:0:
164,88,76488,6,0,B|108:81|56:106|24:147,1,160,2|8,2:0|0:0,0:0:0:0:
28,244,77131,1,0,0:0:0:0:
84,324,77345,2,0,B|108:340|135:346|161:344,1,80,2|0,2:0|0:0,0:0:0:0:
188,304,77667,2,0,B|216:302|243:309|265:323,1,80,,,0:0:0:0:
296,360,77988,1,0,0:0:0:0:
460,292,78202,6,0,B|462:261|454:232|439:207,1,80,2|0,2:0|0:0,0:0:0:0:
408,124,78631,1,8,0:0:0:0:
288,120,78845,1,0,0:0:0:0:
212,180,79060,2,0,B|188:197|177:225|180:252,1,80,2|0,2:0|0:0,0:0:0:0:
100,292,79488,1,8,0:0:0:0:
68,200,79702,1,0,0:0:0:0:
180,348,79917,6,0,B|225:352|265:319|270:272|249:238,1,160,2|8,2:0|0:0,0:0:0:0:
212,148,80560,1,0,0:0:0:0:
220,124,80667,1,0,0:0:0:0:
240,108,80774,2,0,B|280:96|320:100,1,80,2|0,2:0|0:0,0:0:0:0:
395,187,81202,2,0,B|371:202|345:209|319:208,1,80,8|0,0:0|0:0,0:0:0:0:
220,208,81631,5,8,0:0:0:0:
196,208,81738,1,0,0:0:0:0:
172,205,81845,1,0,0:0:0:0:
148,200,81952,1,0,0:0:0:0:
125,192,82060,1,0,0:0:0:0:
103,181,82167,1,0,0:0:0:0:
83,167,82274,1,0,0:0:0:0:
65,150,82381,1,0,0:0:0:0:
53,131,82488,2,0,B|51:102|61:75|78:55,1,80,8|0,0:0|0:0,0:0:0:0:
281,59,82917,2,0,B|298:81|306:108|304:133,1,80,8|0,0:0|0:0,0:0:0:0:
272,292,83345,6,0,B|328:304|382:290|424:259,1,160,4|8,0:0|0:0,0:0:0:0:
280,196,83988,1,0,0:0:0:0:
272,320,84202,2,0,B|328:332|382:318|424:287,1,160,2|8,2:0|0:0,0:0:0:0:
388,108,84845,1,0,0:0:0:0:
304,60,85060,5,2,2:0:0:0:
436,192,85274,1,0,0:0:0:0:
208,48,85488,2,0,B|157:23|100:28|57:56,1,160,8|2,0:0|2:0,0:0:0:0:
12,144,86131,1,0,0:0:0:0:
12,168,86238,1,0,0:0:0:0:
12,192,86345,1,8,0:0:0:0:
76,372,86560,1,0,0:0:0:0:
172,372,86774,5,2,2:0:0:0:
48,280,86988,1,0,0:0:0:0:
200,280,87202,2,0,B|226:298|256:302|284:296,1,80,8|0,0:0|0:0,0:0:0:0:
360,217,87631,2,0,B|337:201|309:196|284:200,1,80,2|0,2:0|0:0,0:0:0:0:
188,200,88060,1,8,0:0:0:0:
100,184,88274,1,0,0:0:0:0:
16,140,88488,6,0,L|48:64,1,80,2|0,2:0|0:0,0:0:0:0:
168,64,88917,2,0,L|199:137,1,80,8|0,0:0|0:0,0:0:0:0:
320,132,89345,2,0,L|352:56,1,80,2|0,2:0|0:0,0:0:0:0:
472,56,89774,2,0,L|503:129,1,80,8|0,0:0|0:0,0:0:0:0:
484,248,90202,6,0,B|472:275|452:296|427:308,1,80,2|0,2:0|0:0,0:0:0:0:
384,308,90524,2,0,L|304:308,1,80,,,0:0:0:0:
256,308,90845,1,0,0:0:0:0:
68,276,91060,2,0,B|44:257|35:228|40:200,1,80,2|0,2:0|0:0,0:0:0:0:
107,121,91488,2,0,B|129:139|139:166|136:192,1,80,8|0,0:0|0:0,0:0:0:0:
196,300,91917,6,0,B|213:325|238:340|264:344,1,80,2|0,2:0|0:0,0:0:0:0:
308,344,92238,2,0,L|388:344,1,80,,,0:0:0:0:
436,344,92560,1,0,0:0:0:0:
496,164,92774,2,0,B|490:135|472:113|448:100,1,80,2|0,2:0|0:0,0:0:0:0:
364,60,93202,1,8,0:0:0:0:
340,54,93310,1,0,0:0:0:0:
316,49,93417,1,0,0:0:0:0:
292,46,93524,1,0,0:0:0:0:
268,44,93631,6,0,B|212:32|158:46|116:76,1,160,2|8,2:0|0:0,0:0:0:0:
88,168,94274,1,0,0:0:0:0:
116,260,94488,1,2,2:0:0:0:
196,312,94702,1,0,0:0:0:0:
292,304,94917,1,8,0:0:0:0:
364,240,95131,1,0,0:0:0:0:
368,144,95345,6,0,L|332:72,1,80,2|0,2:0|0:0,0:0:0:0:
224,124,95774,2,0,L|260:196,1,80,8|0,0:0|0:0,0:0:0:0:
400,144,96202,2,0,L|364:72,1,80,2|0,2:0|0:0,0:0:0:0:
192,124,96631,2,0,L|228:196,1,80,8|0,0:0|0:0,0:0:0:0:
135,339,97060,6,0,B|93:302|83:242|105:195,1,160,4|8,0:0|0:0,0:0:0:0:
232,340,97702,1,0,0:0:0:0:
104,340,97917,2,0,B|61:303|51:243|73:195,1,160,2|8,2:0|0:0,0:0:0:0:
248,88,98560,1,0,0:0:0:0:
180,188,98774,5,2,2:0:0:0:
128,88,98988,1,0,0:0:0:0:
384,136,99202,2,0,B|392:194|378:249|348:293,1,160,8|2,0:0|2:0,0:0:0:0:
284,356,99845,1,0,0:0:0:0:
260,360,99952,1,0,0:0:0:0:
236,360,100060,1,8,0:0:0:0:
32,208,100274,1,0,0:0:0:0:
144,332,100488,5,2,2:0:0:0:
52,304,100702,1,0,0:0:0:0:
180,164,100917,2,0,B|196:136|226:123|255:128,1,80,8|0,0:0|0:0,0:0:0:0:
265,257,101345,2,0,B|294:257|318:242|332:220,1,80,2|0,2:0|0:0,0:0:0:0:
372,132,101774,1,8,0:0:0:0:
340,40,101988,1,0,0:0:0:0:
248,20,102202,6,0,L|168:20,1,80,2|0,2:0|0:0,0:0:0:0:
260,96,102631,2,0,L|184:140,1,80,8|0,0:0|0:0,0:0:0:0:
308,156,103060,2,0,L|276:236,1,80,2|0,2:0|0:0,0:0:0:0:
384,176,103488,2,0,L|408:252,1,80,8|0,0:0|0:0,0:0:0:0:
292,364,103917,6,0,B|263:373|233:370|207:360,1,80,2|0,2:0|0:0,0:0:0:0:
116,212,104345,1,8,0:0:0:0:
136,308,104560,1,0,0:0:0:0:
20,204,104774,2,0,B|18:159|46:119|89:104|127:112,1,160,2|8,2:0|0:0,0:0:0:0:
220,124,105417,1,0,0:0:0:0:
244,128,105524,1,0,0:0:0:0:
268,128,105631,6,0,B|308:116|348:120,1,80,2|0,2:0|0:0,0:0:0:0:
396,128,105952,2,0,B|422:140|440:163|448:188,1,80,,,0:0:0:0:
456,232,106274,1,0,0:0:0:0:
388,300,106488,2,0,B|364:314|337:321|311:320,1,80,2|0,2:0|0:0,0:0:0:0:
155,282,106917,2,0,B|180:267|207:262|233:264,1,80,8|0,0:0|0:0,0:0:0:0:
256,192,107345,12,2,109917,2:0:0:0:
464,312,110774,6,0,B|421:350|356:343|320:301,1,160,4|8,2:0|1:0,0:0:0:0:
256,200,111417,1,0,0:0:0:0:
191,300,111631,2,0,B|155:344|90:348|49:313,1,160,2|8,2:0|1:0,0:0:0:0:
36,216,112274,1,0,0:0:0:0:
72,52,112488,6,0,B|129:48|181:69|218:105,1,160,2|8,2:0|0:0,0:0:0:0:
264,216,113131,1,0,0:0:0:0:
304,328,113345,2,0,B|355:353|416:326|433:272,1,160,2|8,2:0|0:0,0:0:0:0:
436,176,113988,1,0,0:0:0:0:
328,48,114202,6,0,B|275:27|220:27|171:44,1,160,2|8,2:0|0:0,0:0:0:0:
88,132,114845,1,0,0:0:0:0:
100,252,115060,2,0,B|154:270|209:267|257:248,1,160,2|8,2:0|0:0,0:0:0:0:
292,160,115702,1,0,0:0:0:0:
224,44,115917,6,0,B|196:37|168:39|143:48,1,80,2|0,2:0|0:0,0:0:0:0:
100,296,116345,1,8,0:0:0:0:
212,128,116560,1,0,0:0:0:0:
48,216,116774,1,2,2:0:0:0:
248,216,116988,1,0,0:0:0:0:
84,128,117202,1,8,0:0:0:0:
196,296,117417,1,0,0:0:0:0:
292,76,117631,6,0,B|336:67|379:91|396:133|388:171,1,160,4|8,2:0|0:0,0:0:0:0:
348,284,118274,1,0,0:0:0:0:
244,344,118488,2,0,B|200:353|157:329|140:287|148:249,1,160,2|8,2:0|0:0,0:0:0:0:
164,152,119131,1,0,0:0:0:0:
296,48,119345,6,0,B|350:29|406:46|442:83,1,160,2|8,2:0|0:0,0:0:0:0:
348,160,119988,1,0,0:0:0:0:
464,196,120202,2,0,B|509:232|512:299|472:340,1,160,2|8,2:0|0:0,0:0:0:0:
380,364,120845,1,0,0:0:0:0:
208,360,121060,6,0,B|155:340|131:278|156:228,1,160,2|8,2:0|0:0,0:0:0:0:
256,164,121702,1,0,0:0:0:0:
164,88,121917,2,0,B|135:54|89:44|48:60|25:91,1,160,2|8,2:0|0:0,0:0:0:0:
12,188,122560,1,0,0:0:0:0:
116,312,122774,6,0,B|150:341|189:359|230:365,1,120,2|0,2:0|0:0,0:0:0:0:
266,341,123202,2,0,L|327:238,1,120,2|0,2:0|0:0,0:0:0:0:
352,197,123631,1,8,0:0:0:0:
336,104,124060,1,0,0:0:0:0:
336,104,124274,1,0,0:0:0:0:
336,104,124381,1,0,0:0:0:0:
336,104,124488,6,0,B|286:76|230:72|180:88,1,160,4|2,2:0|0:0,0:0:0:0:
96,132,125131,1,0,0:0:0:0:
36,212,125345,2,0,B|39:242|58:265|84:276,1,80,8|0,1:0|0:0,0:0:0:0:
128,272,125667,2,0,B|154:284|169:308|172:334,1,80,0|0,1:0|0:0,0:0:0:0:
192,376,125988,1,0,0:0:0:0:
360,372,126202,6,0,B|406:337|425:281|416:229,1,160,2|2,0:0|0:0,0:0:0:0:
396,136,126845,1,0,0:0:0:0:
332,64,127060,2,0,B|293:48|252:48,1,80,8|0,1:0|0:0,0:0:0:0:
160,72,127488,1,2,0:0:0:0:
84,132,127702,1,0,0:0:0:0:
72,152,127810,1,0,0:0:0:0:
64,176,127917,6,0,B|72:233|99:281|137:317,1,160,2|2,0:0|0:0,0:0:0:0:
232,312,128560,1,0,0:0:0:0:
276,228,128774,2,0,B|266:199|243:180|216:172,1,80,8|0,1:0|0:0,0:0:0:0:
172,176,129095,2,0,B|149:159|135:134|132:108,1,80,,,0:0:0:0:
148,64,129417,1,0,0:0:0:0:
316,44,129631,6,0,B|373:53|413:101|416:155,1,160,2|2,0:0|0:0,0:0:0:0:
416,248,130274,1,0,0:0:0:0:
372,332,130488,2,0,B|329:340|288:320|268:285,1,120,8|8,1:0|1:0,0:0:0:0:
272,236,130917,1,2,0:0:0:0:
276,140,131131,1,0,0:0:0:0:
264,120,131238,1,0,0:0:0:0:
244,104,131345,6,0,B|194:76|138:72|88:88,1,160,2|2,0:0|0:0,0:0:0:0:
32,164,131988,1,0,0:0:0:0:
24,260,132202,2,0,B|23:289|36:315|56:332,1,80,8|0,1:0|0:0,0:0:0:0:
104,328,132524,2,0,L|188:328,1,80,,,0:0:0:0:
232,328,132845,1,0,0:0:0:0:
404,296,133060,6,0,B|418:257|420:216,1,80,2|0,0:0|0:0,0:0:0:0:
284,144,133488,1,2,0:0:0:0:
372,108,133702,1,0,0:0:0:0:
248,232,133917,2,0,B|228:255|200:266|172:264,1,80,8|0,1:0|0:0,0:0:0:0:
88,228,134345,1,2,0:0:0:0:
75,207,134452,1,0,0:0:0:0:
63,185,134560,1,0,0:0:0:0:
56,161,134667,1,0,0:0:0:0:
54,137,134774,6,0,B|65:110|87:92|113:86,1,80,2|0,0:0|0:0,0:0:0:0:
143,122,135095,2,0,B|170:114|191:95|201:71,1,80,,,0:0:0:0:
223,28,135417,1,0,0:0:0:0:
320,36,135631,2,0,B|351:35|378:50|396:72,1,80,8|0,1:0|0:0,0:0:0:0:
424,156,136060,1,2,0:0:0:0:
432,178,136167,1,0,0:0:0:0:
438,201,136274,1,0,0:0:0:0:
438,224,136381,1,0,0:0:0:0:
434,247,136488,6,0,B|430:275|415:298|395:314,1,80,2|0,0:0|0:0,0:0:0:0:
348,316,136810,2,0,L|268:316,1,80,,,0:0:0:0:
220,316,137131,1,0,0:0:0:0:
220,196,137345,1,8,1:0:0:0:
148,132,137560,2,0,B|118:128|90:140|72:160,1,80,0|2,0:0|0:0,0:0:0:0:
16,228,137988,1,0,0:0:0:0:
16,252,138095,1,0,0:0:0:0:
24,276,138202,6,0,B|39:318|78:344|122:344|155:324,1,160,2|2,0:0|0:0,0:0:0:0:
212,244,138845,1,0,0:0:0:0:
256,160,139060,2,0,B|268:134|291:116|316:108,1,80,8|0,1:0|0:0,0:0:0:0:
364,108,139381,2,0,B|393:103|422:109|444:124,1,80,,,0:0:0:0:
472,160,139702,1,0,0:0:0:0:
464,328,139917,6,0,B|415:359|356:359|309:336,1,160,2|2,0:0|0:0,0:0:0:0:
220,300,140560,1,0,0:0:0:0:
204,204,140774,2,0,B|192:178|173:158|151:143,1,80,8|0,1:0|0:0,0:0:0:0:
68,100,141202,1,2,0:0:0:0:
136,32,141417,1,0,0:0:0:0:
160,28,141524,1,0,0:0:0:0:
184,28,141631,6,0,B|240:19|293:46|319:91,1,160,2|2,0:0|0:0,0:0:0:0:
328,188,142274,1,0,0:0:0:0:
328,212,142381,1,0,0:0:0:0:
320,236,142488,2,0,B|308:292|264:332|213:344,1,160,8|2,1:0|0:0,0:0:0:0:
116,344,143131,1,0,0:0:0:0:
0,240,143345,6,0,B|0:210|13:183|32:164,1,80,2|0,0:0|0:0,0:0:0:0:
76,168,143667,2,0,B|101:153|115:127|116:100,1,80,,,0:0:0:0:
116,52,143988,1,0,0:0:0:0:
212,36,144202,2,0,B|269:26|324:42|364:76,1,160,8|2,1:0|0:0,0:0:0:0:
416,152,144845,1,0,0:0:0:0:
424,176,144952,1,0,0:0:0:0:
420,200,145060,6,0,B|410:258|363:298|309:304,1,160,2|2,0:0|0:0,0:0:0:0:
220,272,145702,1,0,0:0:0:0:
248,180,145917,2,0,B|279:183|308:172|328:152,1,80,8|0,1:0|0:0,0:0:0:0:
324,108,146238,2,0,B|303:88|275:81|249:85,1,80,,,0:0:0:0:
200,88,146560,1,0,0:0:0:0:
104,96,146774,6,0,B|78:110|62:134|56:160,1,80,2|0,0:0|0:0,0:0:0:0:
132,316,147202,1,0,0:0:0:0:
60,252,147417,1,2,0:0:0:0:
224,292,147631,2,0,B|252:284|273:264|284:240,1,80,8|0,1:0|0:0,0:0:0:0:
324,152,148060,1,2,0:0:0:0:
244,92,148274,1,0,0:0:0:0:
428,56,148488,6,0,B|460:105|465:162|448:212,1,160,2|2,0:0|0:0,0:0:0:0:
404,296,149131,1,0,0:0:0:0:
384,308,149238,1,0,0:0:0:0:
360,312,149345,2,0,B|331:316|303:311|279:300,1,80,8|0,1:0|0:0,0:0:0:0:
133,231,149774,2,0,B|160:221|188:222|212:232,1,80,2|0,0:0|0:0,0:0:0:0:
68,300,150202,5,2,0:0:0:0:
48,284,150310,1,0,0:0:0:0:
40,264,150417,2,0,B|16:212|26:153|59:113,1,160,,,0:0:0:0:
140,64,151060,1,8,1:0:0:0:
236,56,151274,1,0,0:0:0:0:
259,61,151381,1,8,0:0:0:0:
281,70,151488,1,2,0:0:0:0:
302,80,151595,1,0,0:0:0:0:
322,91,151702,1,8,0:0:0:0:
392,156,151917,6,0,B|418:207|412:264|384:307,1,160,4|8,2:0|0:0,0:0:0:0:
264,328,152560,1,0,0:0:0:0:
144,312,152774,2,0,B|113:264|112:206|135:160,1,160,2|8,2:0|0:0,0:0:0:0:
224,116,153417,1,0,0:0:0:0:
80,36,153631,6,0,B|38:76|21:131|28:184,1,160,2|8,2:0|0:0,0:0:0:0:
64,296,154274,1,0,0:0:0:0:
168,356,154488,2,0,B|225:363|277:341|313:303,1,160,2|8,2:0|0:0,0:0:0:0:
360,220,155131,1,0,0:0:0:0:
320,56,155345,6,0,B|265:39|208:70|192:123,1,160,2|8,2:0|0:0,0:0:0:0:
236,236,155988,1,0,0:0:0:0:
312,328,156202,2,0,B|367:345|424:314|440:261,1,160,2|8,2:0|0:0,0:0:0:0:
440,164,156845,1,0,0:0:0:0:
396,80,157060,6,0,B|353:74|312:76,1,80,2|0,2:0|0:0,0:0:0:0:
216,240,157488,1,8,0:0:0:0:
124,84,157702,1,0,0:0:0:0:
272,160,157917,1,2,2:0:0:0:
64,160,158131,1,0,0:0:0:0:
220,84,158345,1,8,0:0:0:0:
120,240,158560,1,0,0:0:0:0:
272,160,158774,6,0,B|315:176|341:216|341:261|320:295,1,160,2|8,2:0|0:0,0:0:0:0:
212,336,159417,1,0,0:0:0:0:
100,292,159631,2,0,B|73:242|97:180|150:160,1,160,2|8,2:0|0:0,0:0:0:0:
248,168,160274,1,0,0:0:0:0:
428,180,160488,6,0,B|441:125|415:71|369:45,1,160,2|8,2:0|0:0,0:0:0:0:
256,88,161131,1,0,0:0:0:0:
144,43,161345,2,0,B|94:71|72:127|84:179,1,160,2|8,2:0|0:0,0:0:0:0:
124,268,161988,1,0,0:0:0:0:
280,332,162202,6,0,B|335:315|366:259|356:205,1,160,2|8,2:0|0:0,0:0:0:0:
300,100,162845,1,0,0:0:0:0:
196,36,163060,2,0,B|141:53|110:109|120:163,1,160,2|8,2:0|0:0,0:0:0:0:
144,256,163702,1,0,0:0:0:0:
276,356,163917,6,0,B|330:372|386:350|416:308,1,160,2|8,2:0|0:0,0:0:0:0:
416,188,164560,1,0,0:0:0:0:
296,180,164774,1,8,0:0:0:0:
236,68,164988,1,8,0:0:0:0:
120,40,165202,1,8,0:0:0:0:
105,58,165310,1,0,0:0:0:0:
95,79,165417,1,8,0:0:0:0:
87,102,165524,1,0,0:0:0:0:
82,125,165631,6,0,B|69:181|100:236|151:256,1,160,4|8,2:0|0:0,0:0:0:0:
240,224,166274,1,0,0:0:0:0:
288,308,166488,2,0,B|300:335|328:349|355:344,1,80,2|0,2:0|0:0,0:0:0:0:
400,344,166810,2,0,B|428:347|453:331|464:308,1,80,,,0:0:0:0:
468,260,167131,1,0,0:0:0:0:
432,96,167345,6,0,B|376:87|323:109|288:148,1,160,2|8,2:0|0:0,0:0:0:0:
260,240,167988,1,0,0:0:0:0:
164,248,168202,2,0,B|147:224|149:194|164:172,1,80,2|0,2:0|0:0,0:0:0:0:
232,104,168631,1,8,0:0:0:0:
160,40,168845,1,0,0:0:0:0:
136,40,168952,1,0,0:0:0:0:
112,44,169060,6,0,B|54:51|13:97|8:151,1,160,2|8,2:0|0:0,0:0:0:0:
28,244,169702,1,0,0:0:0:0:
84,324,169917,2,0,B|105:344|134:351|160:344,1,80,2|0,2:0|0:0,0:0:0:0:
204,344,170238,2,0,L|204:264,1,80,,,0:0:0:0:
204,216,170560,1,0,0:0:0:0:
232,52,170774,6,0,B|288:38|344:61|375:103,1,160,2|8,2:0|0:0,0:0:0:0:
404,196,171417,1,0,0:0:0:0:
380,288,171631,2,0,B|355:324|316:343|276:344,1,120,2|0,2:0|0:0,0:0:0:0:
232,344,172060,1,8,0:0:0:0:
136,336,172274,1,0,0:0:0:0:
112,329,172381,1,0,0:0:0:0:
90,318,172488,6,0,B|38:293|12:238|21:185,1,160,2|8,2:0|0:0,0:0:0:0:
64,100,173131,1,0,0:0:0:0:
156,72,173345,2,0,B|184:79|199:110|188:136,1,80,2|0,2:0|0:0,0:0:0:0:
188,184,173667,2,0,B|186:214|201:241|224:256,1,80,,,0:0:0:0:
268,264,173988,1,0,0:0:0:0:
436,264,174202,6,0,B|449:236|452:207|448:179,1,80,2|0,2:0|0:0,0:0:0:0:
288,64,174631,1,8,0:0:0:0:
380,88,174845,1,0,0:0:0:0:
192,60,175060,2,0,B|163:55|134:61|112:76,1,80,2|0,2:0|0:0,0:0:0:0:
68,160,175488,1,8,0:0:0:0:
64,183,175595,1,0,0:0:0:0:
62,206,175702,1,0,0:0:0:0:
61,230,175810,1,0,0:0:0:0:
62,253,175917,6,0,B|60:282|70:308|87:328,1,80,2|0,2:0|0:0,0:0:0:0:
132,336,176238,2,0,L|212:336,1,80,,,0:0:0:0:
260,336,176560,1,0,0:0:0:0:
344,288,176774,2,0,B|329:263|303:249|276:248,1,80,2|0,2:0|0:0,0:0:0:0:
184,228,177202,1,8,0:0:0:0:
180,204,177310,1,0,0:0:0:0:
179,180,177417,1,0,0:0:0:0:
181,156,177524,1,0,0:0:0:0:
185,132,177631,6,0,B|192:103|212:81|238:72,1,80,2|0,2:0|0:0,0:0:0:0:
284,72,177952,2,0,L|368:72,1,80,,,0:0:0:0:
412,80,178274,1,0,0:0:0:0:
440,172,178488,1,2,2:0:0:0:
416,328,178702,2,0,B|398:351|370:360|344:356,1,80,0|8,0:0|0:0,0:0:0:0:
244,356,179131,1,0,0:0:0:0:
220,352,179238,1,0,0:0:0:0:
196,348,179345,6,0,B|139:343|97:295|96:241,1,160,2|8,2:0|0:0,0:0:0:0:
152,164,179988,1,0,0:0:0:0:
204,84,180202,2,0,B|246:72|288:76,1,80,2|0,2:0|0:0,0:0:0:0:
332,84,180524,2,0,L|360:160,1,80,,,0:0:0:0:
356,208,180845,1,0,0:0:0:0:
256,344,181060,6,0,B|200:360|144:344|104:308,1,160,4|8,2:0|0:0,0:0:0:0:
80,220,181702,1,0,0:0:0:0:
68,124,181917,2,0,B|90:88|124:64,1,80,2|0,2:0|0:0,0:0:0:0:
216,60,182345,1,8,0:0:0:0:
312,64,182560,1,0,0:0:0:0:
336,68,182667,1,0,0:0:0:0:
360,76,182774,6,0,B|415:90|452:138|456:191,1,160,2|8,2:0|0:0,0:0:0:0:
428,284,183417,1,0,0:0:0:0:
412,304,183524,1,0,0:0:0:0:
392,320,183631,2,0,B|371:340|342:347|316:340,1,80,2|0,2:0|0:0,0:0:0:0:
160,240,184060,1,8,0:0:0:0:
228,308,184274,1,0,0:0:0:0:
96,312,184488,6,0,B|54:273|54:208|91:169,1,160,2|8,2:0|0:0,0:0:0:0:
172,116,185131,1,0,0:0:0:0:
192,104,185238,1,0,0:0:0:0:
216,96,185345,2,0,B|273:98|315:148|308:204,1,160,2|8,2:0|0:0,0:0:0:0:
276,296,185988,1,0,0:0:0:0:
440,344,186202,6,0,B|486:307|493:242|461:197,1,160,2|8,2:0|0:0,0:0:0:0:
392,136,186845,1,0,0:0:0:0:
312,192,187060,2,0,B|286:204|257:208|231:204,1,80,2|0,2:0|0:0,0:0:0:0:
188,200,187381,2,0,B|154:200|127:175|120:145,1,80,,,0:0:0:0:
96,120,187702,1,0,0:0:0:0:
236,28,187917,6,0,B|266:20|295:24|320:36,1,80,2|0,2:0|0:0,0:0:0:0:
432,176,188345,1,8,0:0:0:0:
388,92,188560,1,0,0:0:0:0:
424,272,188774,2,0,B|396:277|369:265|352:244,1,80,2|0,2:0|0:0,0:0:0:0:
276,188,189202,1,8,0:0:0:0:
256,284,189417,1,0,0:0:0:0:
212,116,189631,6,0,B|158:95|100:112|65:151,1,160,2|8,2:0|0:0,0:0:0:0:
48,244,190274,1,0,0:0:0:0:
52,268,190381,1,0,0:0:0:0:
64,288,190488,2,0,B|71:316|91:336|116:344,1,80,2|0,2:0|0:0,0:0:0:0:
212,272,190917,2,0,B|205:244|185:224|160:216,1,80,8|0,0:0|0:0,0:0:0:0:
112,132,191345,5,2,2:0:0:0:
128,114,191452,1,0,0:0:0:0:
147,100,191560,1,0,0:0:0:0:
168,89,191667,1,0,0:0:0:0:
190,81,191774,1,0,0:0:0:0:
213,75,191881,1,0,0:0:0:0:
236,71,191988,1,0,0:0:0:0:
259,69,192095,1,0,0:0:0:0:
284,68,192202,2,0,B|312:70|336:84|352:104,1,80,8|0,0:0|0:0,0:0:0:0:
352,279,192631,2,0,B|335:302|310:314|284:316,1,80,8|0,0:0|0:0,0:0:0:0:
104,252,193060,6,0,L|104:92,1,160,4|8,2:0|0:0,0:0:0:0:
200,252,193702,1,0,0:0:0:0:
72,252,193917,2,0,L|72:92,1,160,2|8,2:0|0:0,0:0:0:0:
240,36,194560,1,0,0:0:0:0:
188,116,194774,5,2,2:0:0:0:
144,28,194988,1,0,0:0:0:0:
332,64,195202,2,0,B|373:104|379:165|353:211,1,160,8|2,0:0|2:0,0:0:0:0:
292,288,195845,1,0,0:0:0:0:
270,298,195952,1,0,0:0:0:0:
247,305,196060,1,8,0:0:0:0:
100,216,196274,1,0,0:0:0:0:
168,144,196488,5,2,2:0:0:0:
140,312,196702,1,0,0:0:0:0:
92,80,196917,2,0,B|109:58|134:46|160:44,1,80,8|0,0:0|0:0,0:0:0:0:
248,208,197345,2,0,B|231:230|206:242|180:244,1,80,2|0,2:0|0:0,0:0:0:0:
168,144,197774,1,8,0:0:0:0:
260,112,197988,1,0,0:0:0:0:
368,164,198202,6,0,L|424:224,1,80,2|0,2:0|0:0,0:0:0:0:
384,336,198631,2,0,L|312:288,1,80,8|0,0:0|0:0,0:0:0:0:
194,291,199060,2,0,L|128:336,1,80,8|0,0:0|0:0,0:0:0:0:
89,222,199489,2,0,L|144:164,1,80,2|0,2:0|0:0,0:0:0:0:
260,60,199917,6,0,B|306:55|348:72,1,80,2|0,2:0|0:0,0:0:0:0:
380,92,200238,2,0,L|380:176,1,80,,,0:0:0:0:
380,220,200560,1,0,0:0:0:0:
348,312,200774,2,0,B|329:336|300:345|272:340,1,80,2|0,2:0|0:0,0:0:0:0:
220,236,201202,2,0,B|239:212|268:203|296:208,1,80,8|0,0:0|0:0,0:0:0:0:
476,232,201631,6,0,B|495:210|501:182|496:156,1,80,2|0,2:0|0:0,0:0:0:0:
492,108,201952,2,0,B|480:82|457:64|432:56,1,80,,,0:0:0:0:
384,48,202274,1,0,0:0:0:0:
288,48,202488,2,0,B|259:44|231:49|207:60,1,80,2|0,2:0|0:0,0:0:0:0:
136,124,202917,1,8,0:0:0:0:
124,144,203024,1,0,0:0:0:0:
116,168,203131,1,0,0:0:0:0:
108,192,203238,1,0,0:0:0:0:
108,216,203345,6,0,B|89:270|111:327|155:355,1,160,2|8,2:0|0:0,0:0:0:0:
252,376,203988,1,0,0:0:0:0:
296,292,204202,1,2,2:0:0:0:
360,364,204417,1,0,0:0:0:0:
388,272,204631,1,8,0:0:0:0:
464,328,204845,1,0,0:0:0:0:
396,168,205060,6,0,L|476:168,1,80,2|0,2:0|0:0,0:0:0:0:
476,48,205488,2,0,L|396:48,1,80,8|0,0:0|0:0,0:0:0:0:
396,200,205917,2,0,L|476:200,1,80,2|0,2:0|0:0,0:0:0:0:
476,20,206345,2,0,L|396:20,1,80,8|0,0:0|0:0,0:0:0:0:
235,95,206774,6,0,B|180:80|125:109|104:158,1,160,4|8,2:0|0:0,0:0:0:0:
276,184,207417,1,0,0:0:0:0:
236,68,207631,2,0,B|181:52|125:80|104:130,1,160,2|8,2:0|0:0,0:0:0:0:
160,320,208274,1,0,0:0:0:0:
64,308,208488,5,2,2:0:0:0:
116,228,208702,1,0,0:0:0:0:
256,320,208917,2,0,B|311:335|366:306|388:257,1,160,8|2,0:0|2:0,0:0:0:0:
392,160,209560,1,0,0:0:0:0:
380,140,209667,1,0,0:0:0:0:
364,120,209774,1,8,0:0:0:0:
184,72,209988,1,2,2:0:0:0:
232,156,210202,5,0,0:0:0:0:
280,72,210417,1,0,0:0:0:0:
92,72,210631,2,0,B|66:84|48:107|40:132,1,80,8|0,0:0|0:0,0:0:0:0:
0,286,211060,2,0,B|26:274|44:252|52:228,1,80,2|0,2:0|0:0,0:0:0:0:
120,164,211488,1,8,0:0:0:0:
200,112,211702,1,0,0:0:0:0:
280,24,211917,6,0,L|360:36,1,80,2|0,2:0|0:0,0:0:0:0:
444,120,212345,2,0,L|364:132,1,80,8|0,0:0|0:0,0:0:0:0:
284,224,212774,2,0,L|364:236,1,80,2|0,2:0|0:0,0:0:0:0:
448,320,213202,2,0,L|368:332,1,80,8|0,0:0|0:0,0:0:0:0:
200,348,213631,6,0,B|169:345|144:328|128:304,1,80,2|0,2:0|0:0,0:0:0:0:
148,128,214060,1,8,0:0:0:0:
112,216,214274,1,0,0:0:0:0:
244,116,214488,2,0,B|299:101|354:135|368:187,1,160,2|8,2:0|0:0,0:0:0:0:
336,280,215131,1,0,0:0:0:0:
316,296,215238,1,0,0:0:0:0:
296,308,215345,6,0,B|257:324|216:324,1,80,2|0,2:0|0:0,0:0:0:0:
168,324,215667,2,0,L|92:292,1,80,,,0:0:0:0:
64,256,215988,1,0,0:0:0:0:
88,164,216202,2,0,B|97:136|116:115|140:104,1,80,2|0,2:0|0:0,0:0:0:0:
304,104,216631,2,0,B|329:116|347:138|354:163,1,80,8|0,0:0|0:0,0:0:0:0:
256,192,217060,12,0,219631,2:0:0:0:
256,56,220488,5,4,2:0:0:0:
